  0
SECTION
  2
HEADER
  9
$ACADVER
  1
AC1014
  9
$ACADMAINTVER
 70
     9
  9
$DWGCODEPAGE
  3
ANSI_1252
  9
$INSBASE
 10
0.0
 20
0.0
 30
0.0
  9
$EXTMIN
 10
4.567720080256936
 20
4.192511082827088
 30
0.0
  9
$EXTMAX
 10
8.055876330256911
 20
7.479000097942595
 30
0.0
  9
$LIMMIN
 10
0.0
 20
0.0
  9
$LIMMAX
 10
12.0
 20
9.0
  9
$ORTHOMODE
 70
     0
  9
$REGENMODE
 70
     1
  9
$FILLMODE
 70
     1
  9
$QTEXTMODE
 70
     0
  9
$MIRRTEXT
 70
     1
  9
$DRAGMODE
 70
     2
  9
$LTSCALE
 40
1.0
  9
$OSMODE
 70
     0
  9
$ATTMODE
 70
     1
  9
$TEXTSIZE
 40
0.2
  9
$TRACEWID
 40
0.05
  9
$TEXTSTYLE
  7
STANDARD
  9
$CLAYER
  8
0
  9
$CELTYPE
  6
BYLAYER
  9
$CECOLOR
 62
   256
  9
$CELTSCALE
 40
1.0
  9
$DELOBJ
 70
     1
  9
$DISPSILH
 70
     0
  9
$DIMSCALE
 40
1.0
  9
$DIMASZ
 40
0.18
  9
$DIMEXO
 40
0.0625
  9
$DIMDLI
 40
0.38
  9
$DIMRND
 40
0.0
  9
$DIMDLE
 40
0.0
  9
$DIMEXE
 40
0.18
  9
$DIMTP
 40
0.0
  9
$DIMTM
 40
0.0
  9
$DIMTXT
 40
0.18
  9
$DIMCEN
 40
0.09
  9
$DIMTSZ
 40
0.0
  9
$DIMTOL
 70
     0
  9
$DIMLIM
 70
     0
  9
$DIMTIH
 70
     1
  9
$DIMTOH
 70
     1
  9
$DIMSE1
 70
     0
  9
$DIMSE2
 70
     0
  9
$DIMTAD
 70
     0
  9
$DIMZIN
 70
     0
  9
$DIMBLK
  1

  9
$DIMASO
 70
     1
  9
$DIMSHO
 70
     1
  9
$DIMPOST
  1

  9
$DIMAPOST
  1

  9
$DIMALT
 70
     0
  9
$DIMALTD
 70
     2
  9
$DIMALTF
 40
25.4
  9
$DIMLFAC
 40
1.0
  9
$DIMTOFL
 70
     0
  9
$DIMTVP
 40
0.0
  9
$DIMTIX
 70
     0
  9
$DIMSOXD
 70
     0
  9
$DIMSAH
 70
     0
  9
$DIMBLK1
  1

  9
$DIMBLK2
  1

  9
$DIMSTYLE
  2
STANDARD
  9
$DIMCLRD
 70
     0
  9
$DIMCLRE
 70
     0
  9
$DIMCLRT
 70
     0
  9
$DIMTFAC
 40
1.0
  9
$DIMGAP
 40
0.09
  9
$DIMJUST
 70
     0
  9
$DIMSD1
 70
     0
  9
$DIMSD2
 70
     0
  9
$DIMTOLJ
 70
     1
  9
$DIMTZIN
 70
     0
  9
$DIMALTZ
 70
     0
  9
$DIMALTTZ
 70
     0
  9
$DIMFIT
 70
     3
  9
$DIMUPT
 70
     0
  9
$DIMUNIT
 70
     2
  9
$DIMDEC
 70
     2
  9
$DIMTDEC
 70
     2
  9
$DIMALTU
 70
     2
  9
$DIMALTTD
 70
     2
  9
$DIMTXSTY
  7
STANDARD
  9
$DIMAUNIT
 70
     0
  9
$LUNITS
 70
     2
  9
$LUPREC
 70
     4
  9
$SKETCHINC
 40
0.1
  9
$FILLETRAD
 40
0.5
  9
$AUNITS
 70
     0
  9
$AUPREC
 70
     0
  9
$MENU
  1
.
  9
$ELEVATION
 40
0.0
  9
$PELEVATION
 40
0.0
  9
$THICKNESS
 40
0.0
  9
$LIMCHECK
 70
     0
  9
$BLIPMODE
 70
     0
  9
$CHAMFERA
 40
0.5
  9
$CHAMFERB
 40
0.5
  9
$CHAMFERC
 40
1.0
  9
$CHAMFERD
 40
0.0
  9
$SKPOLY
 70
     0
  9
$TDCREATE
 40
2452181.663706250
  9
$TDUPDATE
 40
2452643.341459837
  9
$TDINDWG
 40
0.0009593750
  9
$TDUSRTIMER
 40
0.0009593750
  9
$USRTIMER
 70
     1
  9
$ANGBASE
 50
0.0
  9
$ANGDIR
 70
     0
  9
$PDMODE
 70
     0
  9
$PDSIZE
 40
0.0
  9
$PLINEWID
 40
0.0
  9
$COORDS
 70
     1
  9
$SPLFRAME
 70
     0
  9
$SPLINETYPE
 70
     6
  9
$SPLINESEGS
 70
     8
  9
$ATTDIA
 70
     1
  9
$ATTREQ
 70
     1
  9
$HANDLING
 70
-16383
  9
$HANDSEED
  5
131
  9
$SURFTAB1
 70
     6
  9
$SURFTAB2
 70
     6
  9
$SURFTYPE
 70
     6
  9
$SURFU
 70
     6
  9
$SURFV
 70
     6
  9
$UCSNAME
  2

  9
$UCSORG
 10
0.0
 20
0.0
 30
0.0
  9
$UCSXDIR
 10
1.0
 20
0.0
 30
0.0
  9
$UCSYDIR
 10
0.0
 20
1.0
 30
0.0
  9
$PUCSNAME
  2

  9
$PUCSORG
 10
0.0
 20
0.0
 30
0.0
  9
$PUCSXDIR
 10
1.0
 20
0.0
 30
0.0
  9
$PUCSYDIR
 10
0.0
 20
1.0
 30
0.0
  9
$USERI1
 70
     0
  9
$USERI2
 70
     0
  9
$USERI3
 70
     0
  9
$USERI4
 70
     0
  9
$USERI5
 70
     0
  9
$USERR1
 40
0.0
  9
$USERR2
 40
0.0
  9
$USERR3
 40
0.0
  9
$USERR4
 40
0.0
  9
$USERR5
 40
0.0
  9
$WORLDVIEW
 70
     1
  9
$SHADEDGE
 70
     3
  9
$SHADEDIF
 70
    70
  9
$TILEMODE
 70
     1
  9
$MAXACTVP
 70
    64
  9
$PINSBASE
 10
0.0
 20
0.0
 30
0.0
  9
$PLIMCHECK
 70
     0
  9
$PEXTMIN
 10
1.000000000000000E+20
 20
1.000000000000000E+20
 30
1.000000000000000E+20
  9
$PEXTMAX
 10
-1.000000000000000E+20
 20
-1.000000000000000E+20
 30
-1.000000000000000E+20
  9
$PLIMMIN
 10
0.0
 20
0.0
  9
$PLIMMAX
 10
12.0
 20
9.0
  9
$UNITMODE
 70
     0
  9
$VISRETAIN
 70
     1
  9
$PLINEGEN
 70
     0
  9
$PSLTSCALE
 70
     1
  9
$TREEDEPTH
 70
  3020
  9
$PICKSTYLE
 70
     1
  9
$CMLSTYLE
  2
STANDARD
  9
$CMLJUST
 70
     0
  9
$CMLSCALE
 40
1.0
  9
$PROXYGRAPHICS
 70
     1
  9
$MEASUREMENT
 70
     0
  0
ENDSEC
  0
SECTION
  2
CLASSES
  0
CLASS
  1
ACDBDICTIONARYWDFLT
  2
AcDbDictionaryWithDefault
  3
AutoCAD 2000
 90
        0
280
     0
281
     0
  0
CLASS
  1
ACDBPLACEHOLDER
  2
AcDbPlaceHolder
  3
AutoCAD 2000
 90
        0
280
     0
281
     0
  0
CLASS
  1
LAYOUT
  2
AcDbLayout
  3
AutoCAD 2000
 90
        0
280
     0
281
     0
  0
CLASS
  1
LONG_TRANSACTION
  2
AcDbLongTransaction
  3
AutoCAD 2000
 90
        0
280
     0
281
     0
  0
CLASS
  1
LWPOLYLINE
  2
AcDbPolyline
  3
AutoCAD 2000
 90
        0
280
     0
281
     1
  0
CLASS
  1
HATCH
  2
AcDbHatch
  3
AutoCAD 2000
 90
        0
280
     0
281
     1
  0
CLASS
  1
XRECORD
  2
AcDbXrecord
  3
AutoCAD 2000
 90
        0
280
     0
281
     0
  0
ENDSEC
  0
SECTION
  2
TABLES
  0
TABLE
  2
VPORT
  5
8
330
0
100
AcDbSymbolTable
 70
     4
  0
VPORT
  5
10A
330
8
100
AcDbSymbolTableRecord
100
AcDbViewportTableRecord
  2
*ACTIVE
 70
     0
 10
0.0
 20
0.0
 11
1.0
 21
1.0
 12
6.581321473842802
 22
5.283088231257247
 13
0.0
 23
0.0
 14
0.5
 24
0.5
 15
0.5
 25
0.5
 16
0.0
 26
0.0
 36
1.0
 17
0.0
 27
0.0
 37
0.0
 40
8.99999999580908
 41
1.462515883100381
 42
50.0
 43
0.0
 44
0.0
 50
0.0
 51
0.0
 71
     0
 72
   100
 73
     1
 74
     3
 75
     0
 76
     0
 77
     0
 78
     0
  0
ENDTAB
  0
TABLE
  2
LTYPE
  5
5
330
0
100
AcDbSymbolTable
 70
     1
  0
LTYPE
  5
14
330
5
100
AcDbSymbolTableRecord
100
AcDbLinetypeTableRecord
  2
BYBLOCK
 70
     0
  3

 72
    65
 73
     0
 40
0.0
  0
LTYPE
  5
15
330
5
100
AcDbSymbolTableRecord
100
AcDbLinetypeTableRecord
  2
BYLAYER
 70
     0
  3

 72
    65
 73
     0
 40
0.0
  0
LTYPE
  5
16
330
5
100
AcDbSymbolTableRecord
100
AcDbLinetypeTableRecord
  2
CONTINUOUS
 70
     0
  3
Solid line
 72
    65
 73
     0
 40
0.0
  0
ENDTAB
  0
TABLE
  2
LAYER
  5
2
330
0
100
AcDbSymbolTable
 70
     4
  0
LAYER
  5
10
330
2
100
AcDbSymbolTableRecord
100
AcDbLayerTableRecord
  2
0
 70
     0
 62
     7
  6
CONTINUOUS
  0
LAYER
  5
34
330
2
100
AcDbSymbolTableRecord
100
AcDbLayerTableRecord
  2
L
 70
     0
 62
     7
  6
CONTINUOUS
  0
LAYER
  5
45
330
2
100
AcDbSymbolTableRecord
100
AcDbLayerTableRecord
  2
DEFPOINTS
 70
     0
 62
     7
  6
CONTINUOUS
  0
LAYER
  5
88
330
2
100
AcDbSymbolTableRecord
100
AcDbLayerTableRecord
  2
TX
 70
     0
 62
   150
  6
CONTINUOUS
  0
ENDTAB
  0
TABLE
  2
STYLE
  5
3
330
0
100
AcDbSymbolTable
 70
     3
  0
STYLE
  5
11
330
3
100
AcDbSymbolTableRecord
100
AcDbTextStyleTableRecord
  2
STANDARD
 70
     0
 40
0.0
 41
1.0
 50
0.0
 71
     0
 42
0.2
  3
txt
  4

  0
STYLE
  5
35
330
3
100
AcDbSymbolTableRecord
100
AcDbTextStyleTableRecord
  2
REG
 70
     0
 40
0.0
 41
1.0
 50
0.0
 71
     0
 42
0.09375
  3
E:\R13\com\fonts\ARCHITXT.SHX
  4

  0
STYLE
  5
36
330
3
100
AcDbSymbolTableRecord
100
AcDbTextStyleTableRecord
  2
DIMTXT
 70
     0
 40
0.0
 41
1.0
 50
0.0
 71
     0
 42
1.125
  3
archt.shx
  4

  0
ENDTAB
  0
TABLE
  2
VIEW
  5
6
330
0
100
AcDbSymbolTable
 70
     0
  0
ENDTAB
  0
TABLE
  2
UCS
  5
7
330
0
100
AcDbSymbolTable
 70
     0
  0
ENDTAB
  0
TABLE
  2
APPID
  5
9
330
0
100
AcDbSymbolTable
 70
     1
  0
APPID
  5
12
330
9
100
AcDbSymbolTableRecord
100
AcDbRegAppTableRecord
  2
ACAD
 70
     0
  0
ENDTAB
  0
TABLE
  2
DIMSTYLE
  5
A
330
0
100
AcDbSymbolTable
 70
     6
  0
DIMSTYLE
105
27
102
{ACAD_REACTORS
330
C1
330
CF
102
}
330
A
100
AcDbSymbolTableRecord
100
AcDbDimStyleTableRecord
  2
STANDARD
 70
     0
  3

  4

  5

  6

  7

 40
1.0
 41
0.18
 42
0.0625
 43
0.38
 44
0.18
 45
0.0
 46
0.0
 47
0.0
 48
0.0
140
0.18
141
0.09
142
0.0
143
25.4
144
1.0
145
0.0
146
1.0
147
0.09
 71
     0
 72
     0
 73
     1
 74
     1
 75
     0
 76
     0
 77
     0
 78
     0
170
     0
171
     2
172
     0
173
     0
174
     0
175
     0
176
     0
177
     0
178
     0
270
     2
271
     2
272
     2
273
     2
274
     2
340
11
275
     0
280
     0
281
     0
282
     0
283
     1
284
     0
285
     0
286
     0
287
     3
288
     0
  0
DIMSTYLE
105
37
330
A
100
AcDbSymbolTableRecord
100
AcDbDimStyleTableRecord
  2
1
 70
     0
  3

  4

  5

  6

  7

 40
1.0
 41
1.125
 42
0.5
 43
0.375
 44
1.19921875
 45
0.0
 46
0.5
 47
0.0
 48
0.0
140
1.125
141
0.125
142
0.0
143
25.4
144
1.0
145
0.0
146
0.8
147
0.5625
 71
     0
 72
     0
 73
     0
 74
     0
 75
     0
 76
     0
 77
     1
 78
     3
170
     0
171
     2
172
     1
173
     0
174
     1
175
     0
176
   133
177
   133
178
   150
270
     2
271
     3
272
     3
273
     2
274
     2
340
36
275
     0
280
     0
281
     0
282
     0
283
     1
284
     0
285
     0
286
     0
287
     4
288
     0
  0
DIMSTYLE
105
38
330
A
100
AcDbSymbolTableRecord
100
AcDbDimStyleTableRecord
  2
1$2
 70
     0
  3

  4

  5
DOTSMALL
  6

  7

 40
1.0
 41
1.5
 42
0.5
 43
0.375
 44
1.19921875
 45
0.0
 46
0.5
 47
0.0
 48
0.0
140
0.75
141
0.125
142
0.0
143
25.4
144
1.0
145
0.0
146
0.8
147
0.5625
 71
     0
 72
     0
 73
     0
 74
     0
 75
     0
 76
     0
 77
     1
 78
     3
170
     0
171
     2
172
     1
173
     0
174
     1
175
     0
176
   133
177
   133
178
   150
270
     2
271
     3
272
     3
273
     2
274
     2
340
36
275
     0
280
     0
281
     0
282
     0
283
     1
284
     0
285
     0
286
     0
287
     4
288
     0
  0
DIMSTYLE
105
39
330
A
100
AcDbSymbolTableRecord
100
AcDbDimStyleTableRecord
  2
1$4
 70
     0
  3

  4

  5

  6

  7
DOTSMALL
 40
1.0
 41
1.5
 42
0.5
 43
0.375
 44
1.19921875
 45
0.0
 46
0.5
 47
0.0
 48
0.0
140
0.75
141
0.125
142
0.0
143
25.4
144
1.0
145
0.0
146
0.8
147
0.5625
 71
     0
 72
     0
 73
     0
 74
     0
 75
     0
 76
     0
 77
     1
 78
     3
170
     0
171
     2
172
     1
173
     1
174
     1
175
     0
176
   133
177
   133
178
   150
270
     2
271
     3
272
     3
273
     2
274
     2
340
36
275
     0
280
     0
281
     0
282
     0
283
     1
284
     0
285
     0
286
     0
287
     4
288
     0
  0
DIMSTYLE
105
3A
330
A
100
AcDbSymbolTableRecord
100
AcDbDimStyleTableRecord
  2
1$3
 70
     0
  3

  4

  5
DOTSMALL
  6

  7

 40
1.0
 41
1.5
 42
0.5
 43
0.375
 44
1.19921875
 45
0.0
 46
0.5
 47
0.0
 48
0.0
140
0.75
141
0.125
142
0.0
143
25.4
144
1.0
145
0.0
146
0.8
147
0.5625
 71
     0
 72
     0
 73
     0
 74
     0
 75
     0
 76
     0
 77
     1
 78
     3
170
     0
171
     2
172
     1
173
     0
174
     1
175
     0
176
   133
177
   133
178
   150
270
     2
271
     3
272
     3
273
     2
274
     2
340
36
275
     0
280
     0
281
     0
282
     0
283
     1
284
     0
285
     0
286
     0
287
     4
288
     0
  0
DIMSTYLE
105
3B
330
A
100
AcDbSymbolTableRecord
100
AcDbDimStyleTableRecord
  2
1$7
 70
     0
  3

  4

  5

  6

  7

 40
1.0
 41
1.0
 42
0.5
 43
0.375
 44
1.19921875
 45
0.0
 46
0.5
 47
0.0
 48
0.0
140
0.75
141
0.125
142
0.0
143
25.4
144
1.0
145
0.0
146
0.8
147
0.5625
 71
     0
 72
     0
 73
     0
 74
     0
 75
     0
 76
     0
 77
     1
 78
     3
170
     0
171
     2
172
     1
173
     0
174
     1
175
     0
176
   133
177
   133
178
   150
270
     2
271
     3
272
     3
273
     2
274
     2
340
36
275
     0
280
     0
281
     0
282
     0
283
     1
284
     0
285
     0
286
     0
287
     4
288
     0
  0
ENDTAB
  0
TABLE
  2
BLOCK_RECORD
  5
1
330
0
100
AcDbSymbolTable
 70
     5
  0
BLOCK_RECORD
  5
1F
102
{ACAD_XDICTIONARY
360
12D
102
}
330
1
100
AcDbSymbolTableRecord
100
AcDbBlockTableRecord
  2
*MODEL_SPACE
  0
BLOCK_RECORD
  5
1B
102
{ACAD_XDICTIONARY
360
12B
102
}
330
1
100
AcDbSymbolTableRecord
100
AcDbBlockTableRecord
  2
*PAPER_SPACE
  0
BLOCK_RECORD
  5
2B
330
1
100
AcDbSymbolTableRecord
100
AcDbBlockTableRecord
  2
_DOT
  0
BLOCK_RECORD
  5
30
330
1
100
AcDbSymbolTableRecord
100
AcDbBlockTableRecord
  2
_DOTSMALL
  0
BLOCK_RECORD
  5
C2
330
1
100
AcDbSymbolTableRecord
100
AcDbBlockTableRecord
  2
*D3
  0
BLOCK_RECORD
  5
D0
330
1
100
AcDbSymbolTableRecord
100
AcDbBlockTableRecord
  2
*D4
  0
ENDTAB
  0
ENDSEC
  0
SECTION
  2
BLOCKS
  0
BLOCK
  5
20
330
1F
100
AcDbEntity
  8
0
100
AcDbBlockBegin
  2
*MODEL_SPACE
 70
     0
 10
0.0
 20
0.0
 30
0.0
  3
*MODEL_SPACE
  1

  0
ENDBLK
  5
21
330
1F
100
AcDbEntity
  8
0
100
AcDbBlockEnd
  0
BLOCK
  5
1C
330
1B
100
AcDbEntity
 67
     1
  8
0
100
AcDbBlockBegin
  2
*PAPER_SPACE
 70
     0
 10
0.0
 20
0.0
 30
0.0
  3
*PAPER_SPACE
  1

  0
ENDBLK
  5
1D
330
1B
100
AcDbEntity
 67
     1
  8
0
100
AcDbBlockEnd
  0
BLOCK
  5
2E
330
2B
100
AcDbEntity
  8
0
100
AcDbBlockBegin
  2
_DOT
 70
     0
 10
0.0
 20
0.0
 30
0.0
  3
_DOT
  1

  0
LWPOLYLINE
  5
2C
330
2B
100
AcDbEntity
  8
L
 62
     0
100
AcDbPolyline
 90
        2
 70
     1
 43
0.5
 10
-0.25
 20
0.0
 42
1.0
 10
0.25
 20
0.0
 42
1.0
  0
LINE
  5
2D
330
2B
100
AcDbEntity
  8
L
 62
     0
100
AcDbLine
 10
-0.5
 20
0.0
 30
0.0
 11
-1.0
 21
0.0
 31
0.0
  0
ENDBLK
  5
2F
330
2B
100
AcDbEntity
  8
0
100
AcDbBlockEnd
  0
BLOCK
  5
32
330
30
100
AcDbEntity
  8
0
 48
0.116666
100
AcDbBlockBegin
  2
_DOTSMALL
 70
     0
 10
0.0
 20
0.0
 30
0.0
  3
_DOTSMALL
  1

  0
LWPOLYLINE
  5
31
330
30
100
AcDbEntity
  8
0
  6
BYBLOCK
 62
     0
100
AcDbPolyline
 90
        2
 70
     1
 43
0.5
 10
-0.0625
 20
0.0
 42
1.0
 10
0.0625
 20
0.0
 42
1.0
  0
ENDBLK
  5
33
330
30
100
AcDbEntity
  8
0
 48
0.116666
100
AcDbBlockEnd
  0
BLOCK
  5
CD
330
C2
100
AcDbEntity
  8
0
100
AcDbBlockBegin
  2
*D3
 70
     1
 10
0.0
 20
0.0
 30
0.0
  3
*D3
  1

  0
LINE
  5
C3
330
C2
100
AcDbEntity
  8
0
 62
     0
100
AcDbLine
 10
6.132456634414825
 20
6.951962135186818
 30
0.0
 11
6.132456634414825
 21
7.479000097942595
 31
0.0
  0
LINE
  5
C4
330
C2
100
AcDbEntity
  8
0
 62
     0
100
AcDbLine
 10
6.93245663441478
 20
6.951962135186818
 30
0.0
 11
6.93245663441478
 21
7.479000097942595
 31
0.0
  0
LINE
  5
C5
330
C2
100
AcDbEntity
  8
0
 62
     0
100
AcDbLine
 10
5.952456634414826
 20
7.299000097942595
 30
0.0
 11
5.772456634414825
 21
7.299000097942595
 31
0.0
  0
LINE
  5
C6
330
C2
100
AcDbEntity
  8
0
 62
     0
100
AcDbLine
 10
7.11245663441478
 20
7.299000097942595
 30
0.0
 11
7.29245663441478
 21
7.299000097942595
 31
0.0
  0
SOLID
  5
C7
330
C2
100
AcDbEntity
  8
0
 62
     0
100
AcDbTrace
 10
5.952456634414826
 20
7.329000097942595
 30
0.0
 11
5.952456634414826
 21
7.269000097942595
 31
0.0
 12
6.132456634414825
 22
7.299000097942595
 32
0.0
 13
6.132456634414825
 23
7.299000097942595
 33
0.0
  0
SOLID
  5
C8
330
C2
100
AcDbEntity
  8
0
 62
     0
100
AcDbTrace
 10
7.11245663441478
 20
7.329000097942595
 30
0.0
 11
7.11245663441478
 21
7.269000097942595
 31
0.0
 12
6.93245663441478
 22
7.299000097942595
 32
0.0
 13
6.93245663441478
 23
7.299000097942595
 33
0.0
  0
MTEXT
  5
C9
330
C2
100
AcDbEntity
  8
0
 62
     0
100
AcDbMText
 10
6.532456634414803
 20
7.299000097942595
 30
0.0
 40
0.18
 41
0.0
 71
     5
 72
     1
  1
\A1;0.80
1001
ACAD
1000
MTEXTBEGIN
1070
    73
1070
     1
1070
    44
1040
1.0
1070
    74
1070
     0
1000
MTEXTEND
  0
POINT
  5
CA
330
C2
100
AcDbEntity
  8
DEFPOINTS
 62
     0
100
AcDbPoint
 10
6.132456634414825
 20
6.889462135186818
 30
0.0
  0
POINT
  5
CB
330
C2
100
AcDbEntity
  8
DEFPOINTS
 62
     0
100
AcDbPoint
 10
6.93245663441478
 20
6.889462135186818
 30
0.0
  0
POINT
  5
CC
330
C2
100
AcDbEntity
  8
DEFPOINTS
 62
     0
100
AcDbPoint
 10
6.93245663441478
 20
7.299000097942595
 30
0.0
  0
ENDBLK
  5
CE
330
C2
100
AcDbEntity
  8
0
100
AcDbBlockEnd
  0
BLOCK
  5
DB
330
D0
100
AcDbEntity
  8
0
100
AcDbBlockBegin
  2
*D4
 70
     1
 10
0.0
 20
0.0
 30
0.0
  3
*D4
  1

  0
LINE
  5
D1
330
D0
100
AcDbEntity
  8
0
 62
     0
100
AcDbLine
 10
6.099956634414798
 20
6.91946213518679
 30
0.0
 11
5.335428720174264
 21
6.919462135186791
 31
0.0
  0
LINE
  5
D2
330
D0
100
AcDbEntity
  8
0
 62
     0
100
AcDbLine
 10
6.099956634414798
 20
5.29446213518679
 30
0.0
 11
5.335428720174263
 21
5.294462135186791
 31
0.0
  0
LINE
  5
D3
330
D0
100
AcDbEntity
  8
0
 62
     0
100
AcDbLine
 10
5.515428720174264
 20
6.739462135186792
 30
0.0
 11
5.515428720174264
 21
6.286962135186791
 31
0.0
  0
LINE
  5
D4
330
D0
100
AcDbEntity
  8
0
 62
     0
100
AcDbLine
 10
5.515428720174263
 20
5.474462135186791
 30
0.0
 11
5.515428720174263
 21
5.926962135186792
 31
0.0
  0
SOLID
  5
D5
330
D0
100
AcDbEntity
  8
0
 62
     0
100
AcDbTrace
 10
5.485428720174263
 20
6.739462135186792
 30
0.0
 11
5.545428720174264
 21
6.739462135186792
 31
0.0
 12
5.515428720174264
 22
6.919462135186791
 32
0.0
 13
5.515428720174264
 23
6.919462135186791
 33
0.0
  0
SOLID
  5
D6
330
D0
100
AcDbEntity
  8
0
 62
     0
100
AcDbTrace
 10
5.485428720174263
 20
5.474462135186791
 30
0.0
 11
5.545428720174263
 21
5.474462135186791
 31
0.0
 12
5.515428720174263
 22
5.294462135186791
 32
0.0
 13
5.515428720174263
 23
5.294462135186791
 33
0.0
  0
MTEXT
  5
D7
330
D0
100
AcDbEntity
  8
0
 62
     0
100
AcDbMText
 10
5.515428720174262
 20
6.106962135186792
 30
0.0
 40
0.18
 41
0.0
 71
     5
 72
     1
  1
\A1;1.63
1001
ACAD
1000
MTEXTBEGIN
1070
    73
1070
     1
1070
    44
1040
1.0
1070
    74
1070
     0
1000
MTEXTEND
  0
POINT
  5
D8
330
D0
100
AcDbEntity
  8
DEFPOINTS
 62
     0
100
AcDbPoint
 10
6.162456634414798
 20
6.91946213518679
 30
0.0
  0
POINT
  5
D9
330
D0
100
AcDbEntity
  8
DEFPOINTS
 62
     0
100
AcDbPoint
 10
6.162456634414798
 20
5.29446213518679
 30
0.0
  0
POINT
  5
DA
330
D0
100
AcDbEntity
  8
DEFPOINTS
 62
     0
100
AcDbPoint
 10
5.515428720174263
 20
5.294462135186791
 30
0.0
  0
ENDBLK
  5
DC
330
D0
100
AcDbEntity
  8
0
100
AcDbBlockEnd
  0
ENDSEC
  0
SECTION
  2
ENTITIES
  0
TEXT
  5
BD
330
1F
100
AcDbEntity
  8
TX
 48
0.116666
100
AcDbText
 10
4.661455922938035
 20
4.195743841447779
 30
0.0
 40
0.09375
  1
SCALE : FULL SIZE
  7
REG
 11
4.661455922938035
 21
4.289493841447779
 31
0.0
100
AcDbText
 73
     3
  0
LWPOLYLINE
  5
BE
330
1F
100
AcDbEntity
  8
L
 62
     5
 48
0.116666
100
AcDbPolyline
 90
        2
 70
     0
 43
0.028125
 10
4.567720080256936
 20
4.383229684128764
 10
8.055876330256911
 20
4.383229684128764
  0
TEXT
  5
BF
330
1F
100
AcDbEntity
  8
L
 62
     3
 48
0.116666
100
AcDbText
 10
4.661455922938035
 20
4.476965526809749
 30
0.0
 40
0.140625
  1
FRAME SUPPORT TUBE #2175
  7
REG
100
AcDbText
  0
DIMENSION
  5
C1
330
1F
100
AcDbEntity
  8
0
100
AcDbDimension
  2
*D3
 10
6.93245663441478
 20
7.299000097942595
 30
0.0
 11
6.532456634414803
 21
7.299000097942595
 31
0.0
 70
    32
  3
STANDARD
100
AcDbAlignedDimension
 13
6.132456634414825
 23
6.889462135186818
 33
0.0
 14
6.93245663441478
 24
6.889462135186818
 34
0.0
100
AcDbRotatedDimension
  0
DIMENSION
  5
CF
330
1F
100
AcDbEntity
  8
0
100
AcDbDimension
  2
*D4
 10
5.515428720174263
 20
5.294462135186791
 30
0.0
 11
5.515428720174262
 21
6.106962135186792
 31
0.0
 70
    32
  3
STANDARD
100
AcDbAlignedDimension
 13
6.162456634414798
 23
6.91946213518679
 33
0.0
 14
6.162456634414798
 24
5.29446213518679
 34
0.0
 50
90.0
100
AcDbRotatedDimension
  0
LWPOLYLINE
  5
F4
330
1F
100
AcDbEntity
  8
L
 62
     5
100
AcDbPolyline
 90
        8
 70
     1
 43
0.0
 10
6.85245663441491
 20
5.554462135186781
 42
-0.41421356237365
 10
6.792456634414907
 20
5.494462135186722
 10
6.272456634414698
 20
5.494462135186665
 42
-0.4142135623736502
 10
6.212456634414753
 20
5.554462135186781
 10
6.212456634414753
 20
6.659462135186799
 42
-0.4142135623730951
 10
6.272456634414698
 20
6.719462135186745
 10
6.792456634414907
 20
6.719462135186745
 42
-0.4142135623730951
 10
6.852456634414853
 20
6.659462135186799
  0
LWPOLYLINE
  5
F7
330
1F
100
AcDbEntity
  8
L
 62
     5
100
AcDbPolyline
 90
       10
 70
     1
 43
0.0
 10
6.162456634414798
 20
6.91946213518679
 42
0.4142135623753149
 10
6.132456634414598
 20
6.889462135186818
 10
6.132456634414825
 20
6.889462135186818
 10
6.132456634414825
 20
5.324462135186763
 10
6.132456634414598
 20
5.324462135186763
 42
0.4142135623753149
 10
6.162456634414798
 20
5.29446213518679
 10
6.902456634414807
 20
5.29446213518679
 42
0.4142135623730951
 10
6.93245663441478
 20
5.324462135186763
 10
6.93245663441478
 20
6.889462135186818
 42
0.4142135623730951
 10
6.902456634414807
 20
6.91946213518679
  0
ENDSEC
  0
SECTION
  2
OBJECTS
  0
DICTIONARY
  5
C
330
0
100
AcDbDictionary
  3
ACAD_GROUP
350
D
  3
ACAD_LAYOUT
350
1A
  3
ACAD_MLINESTYLE
350
17
  3
ACAD_PLOTSETTINGS
350
19
  3
ACAD_PLOTSTYLENAME
350
E
  3
ACDBHEADERROUNDTRIPXREC
350
10B
  0
DICTIONARY
  5
12D
330
1F
100
AcDbDictionary
280
     1
  3
ACAD_LAYOUTSELFREF
360
12E
  0
DICTIONARY
  5
12B
330
1B
100
AcDbDictionary
280
     1
  3
ACAD_LAYOUTSELFREF
360
12C
  0
DICTIONARY
  5
D
102
{ACAD_REACTORS
330
C
102
}
330
C
100
AcDbDictionary
  0
DICTIONARY
  5
1A
102
{ACAD_REACTORS
330
C
102
}
330
C
100
AcDbDictionary
  0
DICTIONARY
  5
17
102
{ACAD_REACTORS
330
C
102
}
330
C
100
AcDbDictionary
  3
STANDARD
350
18
  0
DICTIONARY
  5
19
102
{ACAD_REACTORS
330
C
102
}
330
C
100
AcDbDictionary
  0
ACDBDICTIONARYWDFLT
  5
E
102
{ACAD_REACTORS
330
C
102
}
330
C
100
AcDbDictionary
281
     1
  3
Normal
350
F
100
AcDbDictionaryWithDefault
340
F
  0
DICTIONARY
  5
10B
102
{ACAD_REACTORS
330
C
102
}
330
C
100
AcDbDictionary
  3
CEPSNTYPE
350
115
  3
FINGERPRINTGUID
350
116
  3
HYPERLINKBASE
350
10E
  3
INSUNITS
350
114
  3
LAYOUTDICT
350
110
  3
LWETCUNION
350
113
  3
PLOTSETDICT
350
111
  3
PLOTSTYLNAMDICT
350
112
  3
PSVPSCALE
350
118
  3
PUCSBASE
350
11B
  3
PUCSORGBACK
350
121
  3
PUCSORGBOTTOM
350
11D
  3
PUCSORGFRONT
350
120
  3
PUCSORGLEFT
350
11E
  3
PUCSORGRIGHT
350
11F
  3
PUCSORGTOP
350
11C
  3
PUCSORTHOREF
350
119
  3
PUCSORTHOVIEW
350
11A
  3
STYLESHEET
350
10F
  3
TSTACKALIGN
350
10C
  3
TSTACKSIZE
350
10D
  3
UCSBASE
350
124
  3
UCSORGBACK
350
12A
  3
UCSORGBOTTOM
350
126
  3
UCSORGFRONT
350
129
  3
UCSORGLEFT
350
127
  3
UCSORGRIGHT
350
128
  3
UCSORGTOP
350
125
  3
UCSORTHOREF
350
122
  3
UCSORTHOVIEW
350
123
  3
VERSIONGUID
350
117
  0
XRECORD
  5
12E
102
{ACAD_REACTORS
330
12D
102
}
330
12D
100
AcDbXrecord
340
1F
  0
XRECORD
  5
12C
102
{ACAD_REACTORS
330
12B
102
}
330
12B
100
AcDbXrecord
340
1B
  0
MLINESTYLE
  5
18
102
{ACAD_REACTORS
330
17
102
}
330
17
100
AcDbMlineStyle
  2
STANDARD
 70
     0
  3

 62
   256
 51
90.0
 52
90.0
 71
     2
 49
0.5
 62
   256
  6
BYLAYER
 49
-0.5
 62
   256
  6
BYLAYER
  0
ACDBPLACEHOLDER
  5
F
102
{ACAD_REACTORS
330
E
102
}
330
E
100
AcDbPlaceHolder
280
     0
  0
XRECORD
  5
115
102
{ACAD_REACTORS
330
10B
102
}
330
10B
100
AcDbXrecord
 90
        0
  0
XRECORD
  5
116
102
{ACAD_REACTORS
330
10B
102
}
330
10B
100
AcDbXrecord
  1
{DC175E3D-AE85-11D5-9A93-0040C77E826B}
  0
XRECORD
  5
10E
102
{ACAD_REACTORS
330
10B
102
}
330
10B
100
AcDbXrecord
  1

  0
XRECORD
  5
114
102
{ACAD_REACTORS
330
10B
102
}
330
10B
100
AcDbXrecord
 90
        1
  0
XRECORD
  5
110
102
{ACAD_REACTORS
330
10B
102
}
330
10B
100
AcDbXrecord
340
1A
  0
XRECORD
  5
113
102
{ACAD_REACTORS
330
10B
102
}
330
10B
100
AcDbXrecord
 90
    10781
  0
XRECORD
  5
111
102
{ACAD_REACTORS
330
10B
102
}
330
10B
100
AcDbXrecord
340
19
  0
XRECORD
  5
112
102
{ACAD_REACTORS
330
10B
102
}
330
10B
100
AcDbXrecord
340
E
  0
XRECORD
  5
118
102
{ACAD_REACTORS
330
10B
102
}
330
10B
100
AcDbXrecord
 40
0.0
  0
XRECORD
  5
11B
102
{ACAD_REACTORS
330
10B
102
}
330
10B
100
AcDbXrecord
340
0
  0
XRECORD
  5
121
102
{ACAD_REACTORS
330
10B
102
}
330
10B
100
AcDbXrecord
 10
0.0
 20
0.0
 30
0.0
  0
XRECORD
  5
11D
102
{ACAD_REACTORS
330
10B
102
}
330
10B
100
AcDbXrecord
 10
0.0
 20
0.0
 30
0.0
  0
XRECORD
  5
120
102
{ACAD_REACTORS
330
10B
102
}
330
10B
100
AcDbXrecord
 10
0.0
 20
0.0
 30
0.0
  0
XRECORD
  5
11E
102
{ACAD_REACTORS
330
10B
102
}
330
10B
100
AcDbXrecord
 10
0.0
 20
0.0
 30
0.0
  0
XRECORD
  5
11F
102
{ACAD_REACTORS
330
10B
102
}
330
10B
100
AcDbXrecord
 10
0.0
 20
0.0
 30
0.0
  0
XRECORD
  5
11C
102
{ACAD_REACTORS
330
10B
102
}
330
10B
100
AcDbXrecord
 10
0.0
 20
0.0
 30
0.0
  0
XRECORD
  5
119
102
{ACAD_REACTORS
330
10B
102
}
330
10B
100
AcDbXrecord
340
0
  0
XRECORD
  5
11A
102
{ACAD_REACTORS
330
10B
102
}
330
10B
100
AcDbXrecord
 70
     0
  0
XRECORD
  5
10F
102
{ACAD_REACTORS
330
10B
102
}
330
10B
100
AcDbXrecord
  1

  0
XRECORD
  5
10C
102
{ACAD_REACTORS
330
10B
102
}
330
10B
100
AcDbXrecord
 90
        1
  0
XRECORD
  5
10D
102
{ACAD_REACTORS
330
10B
102
}
330
10B
100
AcDbXrecord
 90
       70
  0
XRECORD
  5
124
102
{ACAD_REACTORS
330
10B
102
}
330
10B
100
AcDbXrecord
340
0
  0
XRECORD
  5
12A
102
{ACAD_REACTORS
330
10B
102
}
330
10B
100
AcDbXrecord
 10
0.0
 20
0.0
 30
0.0
  0
XRECORD
  5
126
102
{ACAD_REACTORS
330
10B
102
}
330
10B
100
AcDbXrecord
 10
0.0
 20
0.0
 30
0.0
  0
XRECORD
  5
129
102
{ACAD_REACTORS
330
10B
102
}
330
10B
100
AcDbXrecord
 10
0.0
 20
0.0
 30
0.0
  0
XRECORD
  5
127
102
{ACAD_REACTORS
330
10B
102
}
330
10B
100
AcDbXrecord
 10
0.0
 20
0.0
 30
0.0
  0
XRECORD
  5
128
102
{ACAD_REACTORS
330
10B
102
}
330
10B
100
AcDbXrecord
 10
0.0
 20
0.0
 30
0.0
  0
XRECORD
  5
125
102
{ACAD_REACTORS
330
10B
102
}
330
10B
100
AcDbXrecord
 10
0.0
 20
0.0
 30
0.0
  0
XRECORD
  5
122
102
{ACAD_REACTORS
330
10B
102
}
330
10B
100
AcDbXrecord
340
0
  0
XRECORD
  5
123
102
{ACAD_REACTORS
330
10B
102
}
330
10B
100
AcDbXrecord
 70
     0
  0
XRECORD
  5
117
102
{ACAD_REACTORS
330
10B
102
}
330
10B
100
AcDbXrecord
  1
{441ADC44-62FE-4129-AE7F-79A01D264013}
  0
ENDSEC
  0
EOF
